Universal Access To All Knowledge
Home Donate | Store | Blog | FAQ | Jobs | Volunteer Positions | Contact | Bios | Forums | Projects | Terms, Privacy, & Copyright
Search: Advanced Search
Anonymous User (login or join us)
Upload
Search Results
Results: 1 through 50 of 264 (0 secs)
You searched for: subject:"man of steel"
[1] 2 3 4 5 6     Next    Last
[audio]Arc Reactions 01a Man Of Steel
Testing a file with no spaces
Keywords: Man of Steel
Downloads: 8
[audio]Manofsteel
man of steel review
Keywords: man of steel review
Downloads: 245
[movies]Man Of Steel 5 Turkce Altyazili Fragmani
Man-of-Steel
Keywords: Man-of-Steel
Downloads: 155
[audio]Podcast Man of Steel - Joey
Podcast Man of Steel
Keywords: Podcast Man of Steel
Downloads: 3,746
[texts][kickass.to]man.of.steel. 2013.720p.blu.ray.x 264.dual.audio.english. 5.1.hindi.dd. 5.1.mafiaking
zasaf
Keywords: man of steel
Downloads: 233
[audio]The High Hat Film Podcast Episode 15
In a feature length episode of the podcast, Michael and Nick talk about Man of Steel and How to Lose a Guy in 10 Days, this week's top 5 is films from 1998, and there is an extended discussion about Roadhouse on the DVD Club.
Keywords: film; podcast; man of steel
Downloads: 43
[audio]Pre Drink Show Voulme 2: Episode 15 (Man Of Steel Trailer) & (The Top 5) - 2 Sense
Thie week we take a look at the Man Of Steel Trailer and discuss some comic book movie that were relased this yeat. We go through and intresting Top 5.....
Keywords: Man of steel 2 sense
Downloads: 55
[audio]Man of Steel & Justice League Special - Devin and Kase
Part 2 of our Man of Steel Justice League special where we discuss the Justice League.
Keywords: Man of Steel; Justice League
Downloads: 1,467
[audio]Man of Steel and JLA Part 1 - Devin and Kase
In part 1 we cover the new Man of Steel trailer and all of the rumors surrounding the new film
Keywords: Man of Steel; Justice League
Downloads: 426
[audio]losp245
The Subs are joined by Stewart MacWilliam, aka Wetrats for a spoiler filled discussion of the new Superman movie, Man of Steel. We know what WE thought of it, what do YOU think? Let us know in the comments (but don't spoil it for Matt yet!).
Keywords: Man of Steel Movie Review
Downloads: 351
[audio]Episode 24 - Steve Likoski, Glen Burns, and Peter Mounsey
What an interesting episode this one was! Today on the show, we had the normal segments - Pete's Week, TV News, Sports, talking with Trent and a movie review.However, this time we had an impromptu interview with Aiden from Life Beyond, which was really fun. We also played one of their songs, which is included in this podcast.You can find Aiden's band, Life Beyond, on Facebook:  https://www.facebook.com/LifeBeyondaus and get their music here: http://lifebeyondaus.bigcartel.com/Don't forget, you...
Keywords: Radio; Life Beyond; Man of Steel
Downloads: 56
[audio]Defective Geeks 123 - Defective Geeks
The Space Pirate Queen, Gizzy B and ScarlettBurn plus friends line up for the midnight show for Man of Steel. Listen to the Lady Geeks get a little silly while (once again) they line up for many hours to watch a movie. They discuss their expectations with this new Supes while truly creeping on other people in line.
Keywords: Defective Geeks; podcast; Man of Steel
Downloads: 65
[audio]MOS Review - Sean Jaramillo
My review of the movie "Man of Steel."
Keywords: Superman; Man of Steel; movie; review; vlog
Downloads: 7
[audio]Pulling Focus Episode 5: Man of Steel
It's Our First podcast devoted entirely to one film. And what a film it is! Man of Steel has divided people on all sides. Including our magnificent trio. Tune in to see our take on the film that Warner Bros. hopes will kick off a cinematic DC Universe. Does this film live up to the legacy of Superman? Or is it bathed in cinematic kryptonite?
Keywords: Superman; Man of Steel; podcast; movies; reviews
Downloads: 26
[audio]Mexidaorox - Mexidão Rox
No Mexidão cast #49 Thiago Mendes, Patrick Murta e Stherno Yudah se reúnem para comentar algumas noticias bizarras e interessantes, apenas para não ser mais um a falar do dia dos namorados!
Keywords: Podcast; Man of steel; sereias; sexo
Downloads: 117
[audio]Speeding Bullets 14 - The Loudest Geeks in the Room
This week Ryan from the Comic Book Shoppe's Shoppecast joins us on Richie's balcony and we talk Man of Steel with plenty of SPOILERS, Reddie talks about his Toronto adventure and of course comics.
Keywords: Man of Steel; Shoppecast; Monopalatte; Comics; Podcast
Downloads: 24
[audio]2013 04 21 15 25 45 Computer Record
GotRT podcast for 4-21-2013
Keywords: superheroes; x-men; man of steel; deadpool
Downloads: 16
[audio]Between the Bubbles! After-panel chat - Between the Bubbles!
This podcast contains a panel discussion about the upcoming film, Man of Steel.
Keywords: comics; panel; superman; man of steel
Downloads: 25
[audio]Between the Bubbles! After-panel chat - Between the Bubbles!
This podcast contains a panel discussion about the upcoming film, Man of Steel.
Keywords: comics; panel; superman; man of steel
Downloads: 13
[audio]Internets Greatest Comics Podast Episode 15
man of steel superman discussion
Keywords: man of steel snyder nolan superman
Downloads: 55
[unknown]Usenet groups within alt.man-of-steel from giganews.com
Usenet newsgroups within "alt.man-of-steel", contributed courtesy of giganews.com. These captures omit most binary posts.
Keywords: alt.man-of-steel.jay-denebeim
Downloads: 70
[audio]VoK 6: Man of Steel review - Vassals of Kingsgrave
Beware of Spoilers, the following podcast discusses the new superman movie "Man of Steel" in detail. Fortytwo is joined by bina007, teddard, easttexasdirewolf and Erinyes to discuss the new superman movie "Man of Steel". For more podcasts, visit us at http://vokpodcast.wordpress.com/
Keywords: Vassals of Kingsgrave; Superman; Man of Steel
Downloads: 322
[texts]Man Of Steel 2013 CAMRip
Man Of Steel 2013 CAMRip==================================GeneralFormat : AVIFormat/Info : Audio Video InterleaveFile size : 395 MiBDuration : 1h 55mnOverall bit rate : 542 KbpsWriting application : Lavf52.57.1VideoID : 0Format : xvidCodec ID : xvidDuration : 1h 55mnBit rate : 400 KbpsWidth :  720 pixelsHeight : 576 pixelsDisplay aspect ratio : 2.054Frame rate : 30.000 fpsBits/(Pixel*Frame) : 0.074Stream size : 286 MiB (74%)PremiseClark Kent is a humanoid alien who after being transported to Ea...
Keywords: Man Of Steel 2013; CAMRip; movie; hollywood
Downloads: 6,499 5.00 out of 5 stars5.00 out of 5 stars5.00 out of 5 stars5.00 out of 5 stars5.00 out of 5 stars(1 review)
[audio]The Daily Rios 06.24.13 - Peter Rios
Another mishmash of topics including podcasting, Marvel Now, even some Man of Steel thoughts. You've been warned. (11:35)
Keywords: podcast; Marvel Now; Man of Steel; Superman
Downloads: 303
[audio]Ben Of Steel
Ben Flanagan looks at the latest MAN OF STEEL trailer and talks about Hans Zimmer's music and his anticipation of Zack Snyder's take on the DC staple.
Keywords: man of steel trailer; man of steel; superman; hans zimmer; an ideal of hope
Downloads: 143
[audio]Man of Steel Trailer # 3 Reaction - SuperheroEnthusiast Podcast #10 - SuperheroEnthusiast
Alex, Eric and Chris share their thoughts on the latest MOS trailer and discuss changing the race/appearance of supporting characters.
Keywords: SuperheroEnthusiast; superhero; DC; superman; man of steel; trailer
[audio]Chaos Threory Ep 1 - Worm Vonchaos
Welcome to my podcast, this week we get started with sports and finish with comics. check out thegeekality.com for more news and reviews
Keywords: Iron Man 3; WWE; NHL Playoffs; Man of Steel
Downloads: 14
[audio]The Enginerdy Show Episode 47: Migrate Grandfather - Mister Pold, D Viddy and St Jimmy
This week on the Enginerdy Show Mister Pold compares DC comic movies to Marvel comic movies, St Jimmy gives us a glimpse into 2014 with 5 CES trends and D Viddy warns us of twerking teen theivery.
Keywords: DC comics; man of steel; marvel; CES; twerking; wonder woman
Downloads: 5
[audio]'Man of Steel' & BvS - SuperheroEnthusiast Podcast #14 - SuperheroEnthusiast
After futilely postponing the inevitable, Alex (who hates it) and Eric (who likes it) are joined by special guest Bluedragonfive (who loves it) to discuss that alleged Superman movie that came out like a month and a half ago. They also discuss the recent announcement of a sequel to that film that will feature two paragons of hope and justice fighting each other and (presumably) not crime.
Keywords: SuperheroEnthusiast; DC; superhero; Superman; Man of Steel; Batman; Zod
Downloads: 2
[audio]Stop Or My Mom Will Podcast Episode 8 - Ben Bailey
Stop Or My Mom Will Podcast - Episode 8! We talk about some shit, argue, I bitch about Superman. All good fun. 
Keywords: Podcast; Mom; Abortion; Politics; Conspiracy; Cryptozoology; Superman; Man Of Steel
Downloads: 8
[movies]MOR BATFLECK
The Movies on the Radio tackles the casting bombshell that is BATFLECK.....
Keywords: batfleck; BATMAN; Man of Steel; Batman VS Superman
Downloads: 7
[audio]Sideways Into Darkness Episode 3 - James C. Rollins
I make excuses for why I haven't podcast in awhile. Discuss The Lone Ranger, The Heat and Man of Steel.
Keywords: movies; The Lone Ranger; Man of Steel; The Heat
Downloads: 27
[audio]014 Pacific Rim review and Man of Steel spoilers - Helix Reviews
In the 14th episode of the Helix Reviews podcast I review Pacific Rim, and give my thoughts on some Man of Steel spoilers.
Keywords: movie; Pacific Rim; review; and; Man of Steel; spoilers
Downloads: 27
[audio]Nerdy By Nerds Audiopodcast #023: Xbox DRM, The Last of Us & Man of Steel - Nerdy By Nerds
In diesem Podcast unterhalten sich Butsch & Joey über die neuen DRM-Richtlinien von für die Xbox One, The Last of Us und Man of Steel.
Keywords: Xbox One; DRM; The Last of Us; Man of Steel
Downloads: 61
[audio]32 Pages Episode 1 (fixed) - James Harris and Daryn Orr
James and Daryn talk about the first arcs of New 52 The Flash and Green Lantern. They also talk about Man of Steel a little (no spoilers).
Keywords: Podcast; Comics; Flash; Green Lantern; Superman; Man of Steel
Downloads: 37
[audio]Lookin GOOD Episode 93 - Uncle Luke and Polish Bradon
The boys go mobile in their old stomping grounds of Van Nuys, in the neighborhood they used to have "nice nights" in. Uncle Luke has a busy week in the bedroom. Polish Brandon describes the surprising amount of places he's had public sex in said area, and is slowly making progress in his myriad of health issues. Uncle Luke's Man Of Steel review, and his self-criticism for "eating 2 protein bars in one day." The buys run into local rapper and critic Danny Diamond on the streets, and have a brief ...
Keywords: danny diamond; rap; van nuys; man of steel; public sex
Downloads: 67
[audio]32 Pages Episode 1 - James Harris and Daryn Orr
James and Daryn talk about the first arcs of New 52 The Flash and Green Lantern. They also talk about Man of Steel a little (no spoilers).
Keywords: Podcast; Comics; Flash; Green Lantern; Superman; Man of Steel
Downloads: 9
[audio]Film Buff Brothers: Episode 019 Man Of Steel And The East - Film Buff Brothers: Dave and Stephen
Show Notes Hosts: Dave and StephenNew Movie Reviews: Man of Steel, The EastOther Movies We Watched: The International (2009), Primer (2004)Our Website: filmbuffbrothers.comOur Other Websites (Where we review other movies we watch.)Dave: http://www.letterboxd.com/daverandalStephen: http://www.letterboxd.com/stephenmgShow Email (Send us constructive feedback and questions) filmbuffbrothers@gmail.com
Keywords: Man of Steel; The East; The International; Primer
Downloads: 65
[audio]Speeding Bullets 12 - The Loudest Geeks in the Room
Another outdoor podcast! We're loving the balcony. Richie is excited for Man of Steel and we actually talk about comics! Oh and some video games too.
Keywords: Man of Steel; Spider-Island; Mortal Kombat; Injustice
Downloads: 26
[audio]Let's All Talk # 9 - Superman Talk
This weeks podcast has Peter Carpenter, Matt O'shea, Ben Pratt and Dan Cooper. This time they talk about Man of Steel, the future of DC films and more console talk. 
Keywords: LetsAllTalk LetsBothTalk Man OF Steel DC Films Games Gaming Podcast
Downloads: 14
[audio]Speeding Bullets 11 - The Loudest Geeks in the Room
We are joined by Wonder Geek Adam Tupper this week from our new location on Richie's Balcony. See geeks go outside! We talk Richie's new Green Lantern Tattoo, Star Trek Into Darkness, Man of Steel and Adam Tupper hints at something cool in December...
Keywords: Star Trek; Man of Steel; Wonder Geeks Activate; Green Lantern
Downloads: 19
[audio]Selva Cast # 03 Preview Man Of Steel - SelvaCast
Selvacast, o podcast mais selvagem da internet!!http://selvapodcast.wordpress.com/http://www.facebook.com/Podcastselvagemhttps://twitter.com/PodCastSelvagem
Keywords: Podcast; selvacast; preview; homem de aço; man of steel
Downloads: 84
[audio]Defective Geeks 112 - Defective Geeks
The Lady Geeks record their last normal podcast for awhile before the Space Pirate Queen and Gizzy B jets off to Europe. We talk about vampires watching YouTube, flying on airplanes and how Nolan will not be making our JGL-Batman dreams come true in the upcoming Justice League movie. SPQ attempted to hold back on ranting against Man of Steel but failed miserably. Fanfic Theater: James Bond.
Keywords: Defective Geeks; justice league; man of steel; fanfic theater
Downloads: 67
[audio]My God Has a Hammer Episode 4: ..And Abe Vigoda as Batman
This is one of those episodes. You cant really explain what's going on. You just kinda deal with it. Listen as the guys talk Man of Steel, their favorite comic book films and they cast the Justice League..oh, and Superman's anus is brought up. Don't ask us why
Keywords: justice league; man of steel; henry cavill; abe vigoda; batman
Downloads: 32
[audio]Raw Footage 096 - This Is The End & Man Of Steel - Colin Gazeley
Podcast reviewing the films This Is The End & Man Of Steel.
Keywords: film reviews; Man Of Steel; podcast; This Is The End
Downloads: 265
[texts]Man Of Steel 2013 CAM AAC X 264 Potts SC
Man Of Steel 2013 CAM AAC x264 PottsSCRelease Info:Release Name: Man Of Steel 2013 CAM AAC x264 PottsSCFormat: MP4Size: 553 MiBVideo: x264 | 720 x 560 | 722 Kbps | 23.976 FPS | 2.35:1Audio: English | 128 Kbps | 2 ch | MP3Runtime: 1h 59mnSubtitles: NoneIMDB Info:Name: Man Of Steel 2013Genre: Action | Adventure | FantasyIMDB Link: http://www.imdb.com/title/tt0770828/IMDB Rating: 8.2/10 from 72,694 usersDirector: Zack SnyderWriters: David S...
Keywords: Man Of Steel 2013 CAM AAC X 264 Potts SC
Downloads: 38
[audio]SPS 07 E 18 Man Of Steel
Esta semana en un Saga podcast medio cortado por problemas de audio les dejamos la reseña por parte del staff del Saga Podcast menos el Grahf, de man of steel, la nueva película de Superman
Keywords: man of steel; review; peliculas; comics; dc comics; superman; podcast
Downloads: 344
[audio]Ppod 008
Pacific Rim konuşuyoruz! Man of Steel konuşuyoruz! Daha ne diyelim!
Keywords: man of steel; pacific rim; movies; pod cast; ppod; pelerinli
Downloads: 8
[audio]Podmico #37 - Man Of Steel - Mrzi
Fala macacada! No podcast de hoje temos Garibilbo, Churrumino e Zweist junto com 3 convidados especiais (só que não) Nicolas, Geovana e Daniel HDR, todos juntinhos para falar (mal) de Man of Steel. Considerações, falhas, acertos e o que esperamos do universo da DC.
Keywords: Podmico; MRZI; Man of Steel; Superman; Bruno Viado; Gariba Broxa
Downloads: 277
[texts]Man Of Steel 2013 Mp 4 CAM English Super Up D
Man Of Steel 2013 mp4CAM English SuperUpDGeneralFormat : MP4Format/Info : Audio Video InterleaveFile size : 395 MiBDuration : 2h 14mnOverall bit rate : 542 KbpsWriting application : Lavf52.57.1VideoID : 0Format : xvidCodec ID : xvidDuration : 2h 14mnBit rate : 400 KbpsWidth : 1280 pixelsHeight : 720 pixelsDisplay aspect ratio : 2.054Frame rate : 30.000 fpsBits/(Pixel*Frame) : 0.074Stream size : 286 MiB (74%)AudioID : 1Format : MPEG AudioFormat version : Version 1Format profile : Layer 3Mode : Jo...
Keywords: Man Of Steel 2013; hollywood movie; movie; 2013; camrip; cam
Downloads: 697 5.00 out of 5 stars5.00 out of 5 stars5.00 out of 5 stars5.00 out of 5 stars5.00 out of 5 stars(1 review)
[1] 2 3 4 5 6     Next    Last
Advanced search

Group results by:

> Relevance
Mediatype
Collection

Related mediatypes

audio
texts
movies
data